#TITLE:大見解;
#SUBTITLE:;
#ARTIST:DES ROW feat. TSUBOI for ALPHA;
#TITLETRANSLIT:Daikenkai;
#SUBTITLETRANSLIT:;
#ARTISTTRANSLIT:;
#CREDIT:;
#BANNER:daikenkai.png;
#BACKGROUND:dai-bg.png;
#LYRICSPATH:;
#CDTITLE:xlr8r.png;
#MUSIC:daikenkai.mp3;
#OFFSET:-1.728;
#SAMPLESTART:60.840;
#SAMPLELENGTH:12.000;
#SELECTABLE:YES;
#BPMS:0.000=142.950,114.000=172.000;
#STOPS:;
#BGCHANGES:;
// cache tags:
#FIRSTBEAT:0.000;
#LASTBEAT:271.000;
#SONGFILENAME:Songs/Music V.I.P ^_^/Daikenkai [Hayden]/daikenkai.sm;
#HASMUSIC:1;
#HASBANNER:1;
#MUSICLENGTH:107.503;
// end cache tags

//---------------dance-single - ----------------
#NOTES:
     dance-single:
     :
     Challenge:
     10:
     1.000,1.000,1.000,0.093,0.386,531.000,233.000,10.000,0.000,0.000:
2001
0100
3002
0010
2003
0100
3002
0010
,
0013
1100
0000
0000
,
0000
0000
0000
0011
0000
0000
0000
0000
,
0000
0000
0210
0000
,
0000
0000
0001
0010
0301
0010
1001
0000
,
1001
0010
0001
0010
1100
0001
1010
0000
,
1001
0000
0010
0000
1000
0000
0011
0100
1010
0000
0100
0000
1001
0000
0000
0000
,
0011
0100
1000
0001
0110
1000
0001
1000
,
1010
0000
0000
0000
0100
0000
0000
0000
0011
0000
0000
0000
0100
0000
0000
0000
1010
0000
0000
0000
1000
0010
0000
0000
0100
0000
0000
0000
0000
0000
0000
0000
,
1001
0010
0100
0010
1100
0001
0110
0000
,
1000
0000
0110
0000
0001
0000
0110
0001
1010
0000
0100
0000
1001
0000
0000
0000
,
0011
1000
0100
0010
1100
0001
0010
0100
,
1010
0000
0000
0000
0100
0000
0000
0000
1001
0000
0000
0000
0010
0000
0000
0000
0101
0000
0001
0100
0001
0000
0000
0000
0000
0000
0000
0000
0000
0000
0000
0000
,
1001
0010
1001
0000
1001
0100
1001
0000
,
1100
0000
0011
0100
1010
0000
0100
0000
1001
0000
0000
0000
1100
0000
1100
0010
,
1001
0000
0011
0100
1001
0000
1000
0000
0110
0000
0000
0000
1100
0000
0001
0110
,
1000
0101
0010
0000
1100
0000
1010
0000
1001
0000
0000
0000
1100
0000
0000
0000
,
1010
0000
1100
0000
1000
0010
0100
0001
0101
0000
0000
0000
1000
0100
1000
0100
,
0010
0001
0010
0001
0100
0010
1000
0001
1100
0000
0100
0001
0110
0000
0000
0000
,
1100
0000
0000
1000
1100
0000
0001
0010
0100
1000
0010
0000
1001
0000
0000
0000
,
1000
0000
0000
0000
0000
0000
0000
0000
0000
0000
0000
0000
0000
0000
0000
0000
0100
0000
0000
0000
0000
0000
0000
0000
0000
0000
0000
0000
0000
0000
0000
0000
0000
0000
0000
0000
1001
0000
0000
0000
0000
0000
0000
0000
0000
0000
0000
0000
0000
0000
0000
0000
0000
0000
0000
0000
0000
0000
0000
0000
1000
0000
0000
0000
0000
0000
0000
0000
0000
0000
0000
0000
0010
0000
0000
0000
0000
0000
0000
0000
0000
0000
0000
0000
0100
0000
0000
0000
0000
0000
0000
0000
0000
0000
0000
0000
0011
0000
0000
0000
0000
0000
0000
0000
0000
0000
0000
0000
0000
0000
0000
0000
0000
0000
0000
0000
0000
0000
0000
0000
1000
0000
0000
0000
0000
0000
0001
0000
0000
0000
0000
0000
1000
0000
0000
0000
0000
0000
0001
0000
0000
0000
0000
0000
1000
0000
0000
0000
0000
0000
0000
0000
0000
0000
0000
0000
0100
0000
0000
0000
0000
0000
0000
0000
0000
0000
0000
0000
0010
0000
0000
0000
0000
0000
0000
0000
0000
0000
0000
0000
0000
0000
0000
0000
0000
0000
0000
0000
0000
0000
0000
0000
,
1001
0000
0010
0000
1100
0000
0010
0000
1000
0100
1000
0000
0010
0000
1001
0000
,
0100
0000
0010
0000
0101
0000
1000
0100
0010
0001
0010
0000
1001
0000
0100
0000
,
1010
0000
0001
0000
1010
0001
1100
0000
0002
0000
0003
0000
1000
0010
0100
0001
,
1000
0100
0010
0001
0100
0001
0100
0010
1001
0000
0010
0000
1001
0000
0000
0000
,
1000
0000
0010
0000
1001
0100
0000
0010
1001
0000
0000
0000
1010
0000
0001
0000
,
0110
0000
1000
0000
1000
0110
0000
0110
0001
0000
0000
0000
1010
0000
0001
0000
,
1100
0110
0011
0000
0100
1010
0000
0101
0010
0000
0000
0000
1001
0010
0100
1000
,
0110
1000
0100
0010
1001
0010
0100
0010
1001
0000
0000
0000
1001
0000
1001
0000
,
1001
0000
1010
0100
1001
0000
0011
0100
,
0000
1000
0100
0010
1001
0010
0200
0000
,
0300
1000
0011
0100
1000
0100
1010
0102
,
0000
0103
1010
0100
0001
0010
1001
0000
,
0101
0000
1000
1000
1001
0000
0010
0110
,
0000
1000
0010
0100
0001
0010
1100
0000
,
1010
0100
1000
0010
0100
0001
0010
0100
,
1000
0000
0100
0000
0010
0000
0001
0100
0001
0000
1000
0100
1000
0000
0000
0000
,
1001
0100
0010
0100
1001
0010
0101
0000
,
1010
0000
0100
0000
0011
0000
1010
0100
0011
0000
0100
0000
1001
0000
0000
0000
,
0110
1000
0110
0001
1100
0001
1010
0100
,
1001
0010
0101
0010
1100
0000
0000
0000
,
1001
0100
1010
0100
0011
0100
1001
0000
,
0101
0000
0010
0000
1001
0000
1100
0010
0101
0000
1010
0000
0101
0000
0000
0000
,
1100
0010
0011
0100
1010
0100
1001
0010
,
1001
0100
1010
0001
0110
0000
0000
0000
,
1001
0000
0010
0000
0101
0000
0110
1000
0110
0000
0001
0000
1001
0000
0000
0000
,
0011
0000
0001
0000
0101
0000
1001
0010
1001
0000
0100
0000
1010
0000
0000
0000
,
1000
0010
0100
0000
1001
0000
0010
0000
0101
0000
0101
0000
1000
0000
0000
0000
,
1001
0100
1010
0100
0011
0000
0000
0000
,
1010
1010
0100
0001
0011
0011
1000
0000
,
0011
0100
1010
0000
0100
0000
1001
0000
0010
0000
0010
0000
1100
0000
0000
0000
,
1001
0011
0101
1010
1001
0110
1001
0011
,
1010
0000
0110
1000
0110
0000
1000
0001
1000
0000
0001
1000
0001
0000
0010
0000
,
1001
0000
0100
0000
0011
0000
0011
0100
1010
0000
0100
0000
1001
0000
0000
0000
,
0110
0000
1000
0000
0110
0000
1001
0100
1001
0000
0010
0000
1100
0000
0000
0000
,
1000
0010
0100
0000
1001
0000
0010
0000
1100
0000
1100
0000
1001
0000
0000
0000
,
1010
0000
1010
0000
0100
0000
0001
0000
0110
0000
1000
0001
1000
0001
1000
0000
,
1100
1100
0010
0100
1010
1010
1001
0000
,
1001
0100
1010
0000
1001
0000
1000
0100
0011
0000
0100
0000
1001
0000
1000
0001
,
1100
0000
1001
0000
0110
0000
1001
0000
0011
0000
0100
0000
1001
0000
0001
0100
,
0010
0000
1000
0010
0100
0000
1000
0000
0011
0000
0100
0000
1010
0000
0101
0000
,
1001
0000
0100
0000
0011
0000
0100
0000
1010
0000
0100
0000
0011
0000
1000
0100
,
1000
0000
0010
0100
0010
0000
0001
0000
1010
0000
0100
0000
1001
0000
0000
0000
,
1001
0000
0010
0000
0101
0000
1000
0000
0110
0000
1001
0000
1001
0000
0001
1000
,
0001
0000
0011
0000
1000
0100
0010
0001
0110
0000
1000
0000
1001
0000
0000
0000
,
1010
0101
1010
0101
1010
0011
1100
0011
,
1100
0010
0000
1001
0000
1000
0010
0100
1001
0000
0100
0000
1001
0000
0010
0000
,
2002
0000
0000
3003
;
